<svg xmlns="http://www.w3.org/2000/svg"><defs><font id="icomoon" horiz-adv-x="1024"><font-face units-per-em="1024" ascent="960" descent="-64"/><glyph horiz-adv-x="512"/><glyph unicode="" glyph-name="icon_out_icon_cart" d="M955.733 649.387c-3.413 6.827-13.653 10.24-20.48 10.24H242.346L197.973 765.44c-3.413 10.24-13.653 17.067-23.893 17.067H81.92c-13.653 0-23.893-13.653-23.893-27.307s10.24-23.893 23.893-23.893h75.093l194.56-447.147c-23.893-17.067-40.96-44.373-40.96-78.507 0-51.2 40.96-95.573 95.573-95.573 44.373 0 78.507 30.72 88.747 68.267H665.6c10.24-40.96 47.787-68.267 88.747-68.267 51.2 0 95.573 40.96 95.573 95.573s-40.96 95.573-95.573 95.573c-44.373 0-78.507-30.72-88.747-68.267H494.933c-10.24 40.96-47.787 68.267-88.747 68.267h-3.413l-27.307 61.44h453.973c10.24 0 20.48 6.827 23.893 13.653l109.227 245.76c0 10.24 0 20.48-6.827 27.307zM757.76 246.613c23.893 0 44.373-20.48 44.373-44.373s-20.48-44.373-44.373-44.373-44.373 20.48-44.373 44.373 20.48 44.373 44.373 44.373zm-310.613-40.96c0-23.893-20.48-44.373-44.373-44.373s-44.373 20.48-44.373 44.373 20.48 44.373 44.373 44.373 44.373-23.893 44.373-44.373zM808.96 413.867H351.573l-85.333 194.56h631.467l-88.747-194.56z"/><glyph unicode="" glyph-name="icon_out_icon_category" d="M238.933 721.067h136.533V584.534H238.933v136.533zm204.8 0h136.533V584.534H443.733v136.533zm204.8 0h136.533V584.534H648.533v136.533zm-409.6-204.8h136.533V379.734H238.933v136.533zm204.8 0h136.533V379.734H443.733v136.533zm204.8 0h136.533V379.734H648.533v136.533zm-409.6-204.8h136.533V174.934H238.933v136.533zm204.8 0h136.533V174.934H443.733v136.533zm204.8 0h136.533V174.934H648.533v136.533z"/><glyph unicode="" glyph-name="icon_out_icon_contact" d="M904.533 700.587h-788.48c-13.653 0-23.893-13.653-23.893-27.307v-512c0-13.653 10.24-27.307 27.307-27.307h788.48c13.653 0 27.307 10.24 27.307 27.307v512c-6.827 13.653-17.067 27.307-30.72 27.307zm-27.306-512H143.36v460.8h737.28v-460.8zM215.04 523.093l279.893-184.32c3.413-3.413 10.24-3.413 13.653-3.413s10.24 0 13.653 3.413l279.893 184.32c10.24 6.827 13.653 23.893 6.827 34.133s-23.893 13.653-34.133 6.827l-266.24-174.08-266.24 174.08c-10.24 6.827-27.307 3.413-34.133-6.827s-3.413-27.307 6.827-34.133z"/><glyph unicode="" glyph-name="icon_out_icon_login" d="M808.96 546.987h-81.92V601.6c0 122.88-98.987 221.867-221.867 221.867S283.306 724.48 283.306 601.6v-54.613h-85.333c-13.653 0-27.307-10.24-27.307-27.307V72.533c0-13.653 10.24-27.307 27.307-27.307h607.573c13.653 0 27.307 10.24 27.307 27.307v450.56c0 13.653-10.24 23.893-23.893 23.893zM334.507 601.6c0 92.16 75.093 170.667 170.667 170.667S675.841 697.174 675.841 601.6v-54.613H334.508V601.6zm447.146-498.347H225.28v392.533h556.373V103.253zm-303.786 163.84v-92.16c0-13.653 10.24-27.307 27.307-27.307s27.307 10.24 27.307 27.307v92.16c30.72 10.24 54.613 40.96 54.613 75.093 0 44.373-37.547 81.92-81.92 81.92s-81.92-37.547-81.92-81.92c0-34.133 23.893-64.853 54.613-75.093z"/><glyph unicode="" glyph-name="icon_out_icon_logout" d="M764.587 823.467c-122.88 0-221.867-98.987-221.867-221.867v-54.613H71.68c-13.653 0-27.307-10.24-27.307-27.307V72.533c0-13.653 10.24-27.307 27.307-27.307h607.573c13.653 0 27.307 10.24 27.307 27.307v450.56c0 13.653-10.24 27.307-27.307 27.307h-81.92v54.613c0 92.16 75.093 170.667 170.667 170.667s170.667-75.093 170.667-170.667V529.92c0-13.653 10.24-27.307 27.307-27.307s27.307 10.24 27.307 27.307v75.093c-6.827 119.467-105.813 218.453-228.693 218.453zm-112.64-720.214H95.574v392.533h556.373V103.253zM348.16 267.093v-92.16c0-13.653 10.24-27.307 27.307-27.307s27.307 10.24 27.307 27.307v92.16c30.72 10.24 54.613 40.96 54.613 75.093 0 44.373-37.547 81.92-81.92 81.92s-81.92-37.547-81.92-81.92c0-34.133 23.893-64.853 54.613-75.093z"/><glyph unicode="" glyph-name="icon_out_icon_mypage" d="M580.267 437.76c71.68 27.307 119.467 95.573 119.467 177.493 0 105.813-85.333 191.147-191.147 191.147S317.44 721.067 317.44 615.253c0-78.507 51.2-150.187 119.467-177.493-88.747-58.027-245.76-177.493-245.76-320.853 0-13.653 10.24-27.307 27.307-27.307h583.68c13.653 0 27.307 10.24 27.307 27.307-3.413 143.36-160.427 262.827-249.173 320.853zM368.64 615.253c0 78.507 61.44 139.947 139.947 139.947s139.947-61.44 139.947-139.947-61.44-139.947-139.947-139.947-139.947 61.44-139.947 139.947zM245.76 140.8c23.893 133.12 215.04 249.173 262.827 279.893 51.2-27.307 242.347-143.36 262.827-279.893H245.761z"/><glyph unicode="" glyph-name="icon_out_icon_registration" d="M515.413 813.227c-201.387 0-365.227-167.253-365.227-368.64S314.026 79.36 515.413 79.36 880.64 243.2 880.64 444.587c0 201.387-163.84 368.64-365.227 368.64zm0-682.667c-174.08 0-314.027 139.947-314.027 314.027s139.947 314.027 314.027 314.027S829.44 618.667 829.44 444.587c0-170.667-139.947-314.027-314.027-314.027zm116.054 341.333h-92.16v92.16c0 13.653-10.24 27.307-27.307 27.307s-27.307-10.24-27.307-27.307v-92.16h-92.16c-13.653 0-27.307-10.24-27.307-27.307s10.24-27.307 27.307-27.307h92.16v-92.16c0-13.653 10.24-27.307 27.307-27.307s27.307 10.24 27.307 27.307v92.16h92.16c13.653 0 27.307 10.24 27.307 27.307s-13.653 27.307-27.307 27.307z"/><glyph unicode="" glyph-name="icon_out_icon_search" d="M791.893 731.307c-122.88 122.88-317.44 119.467-440.32 0-112.64-112.64-119.467-296.96-13.653-419.84L146.773 120.32c-10.24-10.24-10.24-27.307 0-37.547 3.413-3.413 10.24-6.827 17.067-6.827s13.653 3.413 17.067 6.827L372.054 273.92c54.613-47.787 126.293-75.093 201.387-75.093 81.92 0 160.427 30.72 218.453 92.16 58.027 58.027 92.16 136.533 92.16 218.453 0 85.333-30.72 163.84-92.16 221.867zM757.76 328.533c-47.787-47.787-112.64-75.093-184.32-75.093-68.267 0-133.12 27.307-184.32 75.093-102.4 102.4-102.4 266.24 0 368.64 51.2 51.2 116.053 75.093 184.32 75.093 64.853 0 133.12-23.893 184.32-75.093 47.787-47.787 75.093-112.64 75.093-184.32s-27.307-133.12-75.093-184.32z"/><glyph unicode="" glyph-name="arrow_down" d="M967.68 652.8l-42.721 42.721L512 282.562 99.041 695.521 56.32 652.8 512 197.12z"/><glyph unicode="" glyph-name="arrow_left" d="M678.482-43.52L721.203-.799 308.244 412.16l412.959 412.959-42.721 42.721-455.68-455.68z"/><glyph unicode="" glyph-name="arrow_right" d="M345.539 898.56l-42.742-42.721L715.756 442.88 302.797 29.921 345.518-12.8l455.68 455.68z"/><glyph unicode="" glyph-name="arrow_up" d="M56.32 239.841l42.721-42.721L512 610.079 924.959 197.12l42.721 42.721L512 695.521z"/><glyph unicode="" glyph-name="twitter" d="M1024 733.6c-37.6-16.8-78.2-28-120.6-33 43.4 26 76.6 67.2 92.4 116.2-40.6-24-85.6-41.6-133.4-51C824 806.6 769.4 832 709 832c-116 0-210-94-210-210 0-16.4 1.8-32.4 5.4-47.8-174.6 8.8-329.4 92.4-433 219.6-18-31-28.4-67.2-28.4-105.6 0-72.8 37-137.2 93.4-174.8-34.4 1-66.8 10.6-95.2 26.2V537c0-101.8 72.4-186.8 168.6-206-17.6-4.8-36.2-7.4-55.4-7.4-13.6 0-26.6 1.4-39.6 3.8 26.8-83.4 104.4-144.2 196.2-146-72-56.4-162.4-90-261-90-17 0-33.6 1-50.2 3C93 34.6 203.4 0 322 0c386.4 0 597.8 320.2 597.8 597.8 0 9.2-.2 18.2-.6 27.2 41 29.4 76.6 66.4 104.8 108.6z"/><glyph unicode="" glyph-name="facebook" d="M608 768h160v192H608c-123.514 0-224-100.486-224-224v-96H256V448h128V-64h192v512h160l32 192H576v96c0 17.346 14.654 32 32 32z"/><glyph unicode="" glyph-name="google-plus" d="M325.8 502.6V390.8h184.8c-7.4-48-55.8-140.6-184.8-140.6-111.2 0-202 92.2-202 205.8s90.8 205.8 202 205.8c63.4 0 105.6-27 129.8-50.2l88.4 85.2c-56.8 53-130.4 85.2-218.2 85.2C145.6 781.8 0 636.2 0 456s145.6-325.8 325.8-325.8c188 0 312.8 132.2 312.8 318.4 0 21.4-2.4 37.8-5.2 54H325.8zM1024 512h-96v96h-96v-96h-96v-96h96v-96h96v96h96z"/><glyph unicode="" glyph-name="cross" d="M1014.662 137.34c-.004.004-.008.008-.012.01L704.006 448l310.644 310.65.012.01a31.763 31.763 0 017.312 11.416c4.246 11.376 1.824 24.682-7.324 33.83L867.904 950.652c-9.148 9.146-22.45 11.566-33.828 7.32a31.826 31.826 0 01-11.418-7.31c0-.004-.004-.006-.008-.01L512.002 640 201.354 950.65l-.01.01a31.794 31.794 0 01-11.414 7.31c-11.38 4.248-24.682 1.826-33.83-7.32L9.352 803.902C.204 794.754-2.216 781.45 2.03 770.074a31.816 31.816 0 017.312-11.416c.004-.002.006-.006.01-.01L320.002 448 9.352 137.348l-.008-.01a31.859 31.859 0 01-7.314-11.414c-4.248-11.376-1.826-24.682 7.322-33.83L156.1-54.652c9.15-9.148 22.452-11.568 33.83-7.322a31.834 31.834 0 0111.416 7.312c.002.004.006.006.01.01l310.648 310.65 310.648-310.65.012-.008a31.822 31.822 0 0111.414-7.314c11.378-4.246 24.684-1.826 33.828 7.322l146.746 146.748c9.148 9.148 11.57 22.454 7.324 33.83a31.805 31.805 0 01-7.314 11.414z"/><glyph unicode="" glyph-name="user" d="M576 253.388v52.78C646.498 345.896 704 444.94 704 544c0 159.058 0 288-192 288S320 703.058 320 544c0-99.06 57.502-198.104 128-237.832v-52.78C230.898 235.64 64 128.968 64 0h896c0 128.968-166.898 235.64-384 253.388z"/><glyph unicode="" glyph-name="bubble" d="M512 768c-54.932 0-107.988-8.662-157.694-25.742-46.712-16.054-88.306-38.744-123.628-67.444C164.464 621.016 128 551.83 128 480c0-40.298 11.188-79.378 33.252-116.152 22.752-37.92 56.982-72.586 98.988-100.252a127.993 127.993 0 0056.176-87.894 323.6 323.6 0 003.37-36.124c7.47 6.194 14.75 12.846 21.88 19.976a128.015 128.015 0 00106.658 36.466A506.846 506.846 0 01512 192c54.934 0 107.988 8.66 157.694 25.742 46.712 16.054 88.306 38.744 123.628 67.444C859.536 338.982 896 408.17 896 480s-36.464 141.016-102.678 194.814c-35.322 28.698-76.916 51.39-123.628 67.444C619.988 759.338 566.934 768 512 768zm0 128c282.77 0 512-186.25 512-416S794.77 64 512 64c-27.156 0-53.81 1.734-79.824 5.044C322.198-40.934 190.926-60.656 64-63.552v26.916C132.536-3.058 192 58.104 192 128c0 9.754-.758 19.33-2.164 28.696C74.04 232.96 0 349.45 0 480c0 229.75 229.23 416 512 416z"/><glyph unicode="" glyph-name="mobile" d="M736 960H288c-52.8 0-96-43.2-96-96V32c0-52.8 43.2-96 96-96h448c52.8 0 96 43.2 96 96v832c0 52.8-43.2 96-96 96zm-352-48h256v-32H384v32zM512 0c-35.346 0-64 28.654-64 64s28.654 64 64 64 64-28.654 64-64-28.654-64-64-64zm256 192H256v640h512V192z"/><glyph unicode="" glyph-name="phone" d="M704 320c-64-64-64-128-128-128s-128 64-192 128-128 128-128 192 64 64 128 128-128 256-192 256S0 704 0 704c0-128 131.5-387.5 256-512S640-64 768-64c0 0 192 128 192 192S768 384 704 320z"/><glyph unicode="" glyph-name="circle-right2" d="M512 960C229.23 960 0 730.77 0 448S229.23-64 512-64s512 229.23 512 512-229.23 512-512 512zm0-928C282.25 32 96 218.25 96 448s186.25 416 416 416 416-186.25 416-416S741.75 32 512 32zM354.744 253.256l90.512-90.512L730.51 448 445.254 733.254l-90.508-90.508L549.49 448z"/><glyph unicode="" glyph-name="table_icon001" d="M512 862.72l-480-832h960zm0-115.2l380.16-659.2H131.84z"/><glyph unicode="" glyph-name="table_icon002" d="M992 32H32l480 832L992 32z"/><glyph unicode="" glyph-name="table_icon003" d="M512 960C229.23 960 0 730.77 0 448S229.23-64 512-64s512 229.23 512 512-229.23 512-512 512zm0-958.171C265.586 1.829 65.829 201.587 65.829 448S265.587 894.171 512 894.171c246.414 0 446.171-199.758 446.171-446.171C957.963 201.67 758.329 2.037 512.02 1.829H512z"/><glyph unicode="" glyph-name="table_icon004" d="M1024 448c0-282.77-229.23-512-512-512S0 165.23 0 448s229.23 512 512 512 512-229.23 512-512z"/><glyph unicode="" glyph-name="table_icon005" d="M512 813.714c-201.978 0-365.714-163.736-365.714-365.714S310.022 82.286 512 82.286 877.714 246.022 877.714 448 713.978 813.714 512 813.714zm0-665.6c-165.622 0-299.886 134.263-299.886 299.886S346.377 747.886 512 747.886c165.622 0 299.886-134.263 299.886-299.886-.208-165.538-134.347-299.678-299.865-299.886h-.02zM512 960C229.23 960 0 730.77 0 448S229.23-64 512-64s512 229.23 512 512-229.23 512-512 512zm0-958.171C265.586 1.829 65.829 201.587 65.829 448S265.587 894.171 512 894.171c246.414 0 446.171-199.758 446.171-446.171C957.963 201.67 758.329 2.037 512.02 1.829H512z"/><glyph unicode="" glyph-name="table_icon006" d="M0 960V-64h1024V960zM958.171 1.829H65.828v892.343h892.343z"/><glyph unicode="" glyph-name="table_icon007" d="M64 896h896V0H64v896z"/><glyph unicode="" glyph-name="table_icon008" d="M1024 908.537L972.537 960 512.203 499.666 51.464 960 .001 908.537l460.334-460.739L.001-12.536l51.463-51.463 460.739 460.334L972.537-63.999 1024-12.536 563.666 447.798 1024 908.537z"/><glyph unicode="" glyph-name="table_icon009" d="M512 925.867l126.635-357.035L1024 560.64 717.141 332.288 828.416-29.867 512 185.856 195.584-29.867l111.275 362.155L0 560.64l385.365 8.192L512 925.867z"/><glyph unicode="" glyph-name="table_icon010" d="M1024 560.64l-385.365 7.851L512 925.867 385.365 568.832 0 560.64l307.2-228.693L195.584-29.866 512 185.857 828.416-29.866 716.8 332.289zM716.8 119.637L512 260.266 307.2 119.637l72.704 235.861-197.973 147.456 248.491 5.12 81.579 234.155 82.944-233.813 248.491-5.12L645.463 355.84z"/></font>
</defs>
</svg>
